The Gamers Hive
 
HomeSearchFAQRegisterLog in

Share | 
 

 Supreme Champion 2010 BRRip XviD Ac3 Feel-Free

Go down 
AuthorMessage
bubgamem4m
Soldier First Class
Soldier First Class
avatar

Posts : 728
Join date : 2011-10-07
Age : 29

PostSubject: Supreme Champion 2010 BRRip XviD Ac3 Feel-Free   Fri Dec 30, 2011 7:30 am

( Share by 3v3rything4u )
[FS] Supreme.Champion.2010.BRRip.XviD.Ac3.Feel-Free


I WILL UPDATE DAILY - ALL MOVIES ARE DOWNLOADED, TESTED AND UPLOADED BY ME PERSONALLY !

If you find any dead link, please reply and I will reply back to you when its done, thanks and have a good time !


________________

Movie Information
    Type: Action
    Director: Ted Fox, Richard Styles
    Writers: Ted Fox (story), George Saunders (screenplay)
    Stars: Stephan Bonnar, Daniel Bernhardt and Leila Arcieri
    Story: She was in trouble and only he could save her

    Video
    ID : 0
    Format : MPEG-4 Visual
    Format profile : Advanced Simple@L5
    Format settings, BVOP : Yes
    Format settings, QPel : No
    Format settings, GMC : No warppoints
    Format settings, Matrix : Default (H.263)
    Codec ID : XVID
    Codec ID/Hint : XviD
    Duration : 1h 26mn
    Bit rate : 1 275 Kbps
    Width : 640 pixels
    Height : 360 pixels
    Display aspect ratio : 16:9
    Frame rate : 23.976 fps
    Color space : YUV
    Chroma subsampling : 4:2:0
    Bit depth : 8 bits
    Scan type : Progressive
    Bits/(Pixel*Frame) : 0.231
    Stream size : 786 MiB (74%)
    Writing library : XviD 1.2.1 (UTC 2008-12-04)

    Audio
    ID : 1
    Format : AC-3
    Format/Info : Audio Coding 3
    Mode extension : CM (complete main)
    Codec ID : 2000
    Duration : 1h 26mn
    Bit rate mode : Constant
    Bit rate : 448 Kbps
    Channel(s) : 6 channels
    Channel positions : Front: L C R, Side: L R, LFE
    Sampling rate : 48.0 KHz
    Bit depth : 16 bits
    Stream size : 276 MiB (26%)
    Alignment : Aligned on interleaves
    Interleave, duration : 42 ms (1.00 video frame)
    Interleave, preload duration : 512 ms



Movie Trailer
Code:
http://www.youtube.com/watch?v=74EZvj4AcAo


Movie Screens

________________

________________



________ LINK DOWNLOAD ____________________________
Code:

http://www.fileserve.com/file/8Z6vekx/SUPaCHAbGA.part1.rar
http://www.fileserve.com/file/FjAVxUk/SUPaCHAbGA.part2.rar
http://www.fileserve.com/file/dxTrVgX/SUPaCHAbGA.part3.rar


(<>)______________________________ FAQ _____________________________(<>)

1) I can't open the video
Some software doesn't have the code to watch, I suggest downloading K Lite Mega Code Pack, it can watch almost all the film.

2) One of the link is dead
Sometimes, if you use another software to download the link, it reports that it's broken but actually it is not, so just copy and paste it on your browser to test it. But if you still got trouble, no worry, just let me know by replying and I will reupload.

3) Extract fail, CRC error. This could be several reason:
a) While downloading serveral parts, due to internet connection you're not downloading fully one of the part therefore is broken, so check the download size for each part if the problem appears.
b) Sometimes even there's no problem in adding archive or uploading or downloading but it still reports the CRC Fails, just select the Keep Broken File option then ignore the dialog that say CRC fails and wait for the extraction to be done, the quality is not much different (actually nothing change I believe)

4) How to extract file with many parts
Just download and put them all in the same folder then extract one part, it will automatic find the rest for you.

Have fun watching movie, and if you find any problem, please let me know and I will try to help ! If you like my topic, please share it to your friends and say thanks to keep the topic alive, thanks ^_^
Back to top Go down
 
Supreme Champion 2010 BRRip XviD Ac3 Feel-Free
Back to top 
Page 1 of 1

Permissions in this forum:You cannot reply to topics in this forum
Pspipes :: Downloads :: Movies-
Jump to: