The Gamers Hive
HomeSearchFAQRegisterLog in

Share | 


Go down 
Soldier First Class
Soldier First Class

Posts : 728
Join date : 2011-10-07
Age : 29

PostSubject: The.Innkeepers.2011.HDRiP.XviD.AC3-SiC   Thu Jan 05, 2012 7:52 am

( Share by 3v3rything4u )
[FS] The.Innkeepers.2011.HDRiP.XviD.AC3-SiC


If you find any dead link, please reply and I will reply back to you when its done, thanks and have a good time !


Movie Information
    Type: Horror | Thriller
    Director: Ti West
    Writers: Ti West
    Stars: Sara Paxton, Pat Healy and Kelly McGillis
    Story: During the final days at the Yankee Pedlar Inn, two employees determined to reveal the hotel's haunted past begin to experience disturbing events as old guests check in for a stay.

    ID : 0
    Format : MPEG-4 Visual
    Format profile : Advanced Simple@L5
    Format settings, BVOP : 2
    Format settings, QPel : No
    Format settings, GMC : No warppoints
    Format settings, Matrix : Default (H.263)
    Muxing mode : Packed bitstream
    Codec ID : XVID
    Codec ID/Hint : XviD
    Duration : 1h 41mn
    Bit rate : 1 655 Kbps
    Width : 720 pixels
    Height : 304 pixels
    Display aspect ratio : 2.35:1
    Frame rate : 23.976 fps
    Color space : YUV
    Chroma subsampling : 4:2:0
    Bit depth : 8 bits
    Scan type : Progressive
    Compression mode : Lossy
    Bits/(Pixel*Frame) : 0.315
    Stream size : 1.17 GiB (89%)
    Writing library : XviD 1.1.2 (UTC 2006-11-01)

    ID : 1
    Format : AC-3
    Format/Info : Audio Coding 3
    Mode extension : CM (complete main)
    Codec ID : 2000
    Duration : 1h 41mn
    Bit rate mode : Constant
    Bit rate : 192 Kbps
    Channel(s) : 2 channels
    Channel positions : Front: L R
    Sampling rate : 48.0 KHz
    Bit depth : 16 bits
    Compression mode : Lossy
    Stream size : 139 MiB (10%)
    Alignment : Aligned on interleaves
    Interleave, duration : 64 ms (1.53 video frames)
    Interleave, preload duration : 192 ms
    Title : innkeepers

Movie Trailer

Movie Screens



________ LINK DOWNLOAD ____________________________

(<>)______________________________ FAQ _____________________________(<>)

1) I can't open the video
Some software doesn't have the code to watch, I suggest downloading K Lite Mega Code Pack, it can watch almost all the film.

2) One of the link is dead
Sometimes, if you use another software to download the link, it reports that it's broken but actually it is not, so just copy and paste it on your browser to test it. But if you still got trouble, no worry, just let me know by replying and I will reupload.

3) Extract fail, CRC error. This could be several reason:
a) While downloading serveral parts, due to internet connection you're not downloading fully one of the part therefore is broken, so check the download size for each part if the problem appears.
b) Sometimes even there's no problem in adding archive or uploading or downloading but it still reports the CRC Fails, just select the Keep Broken File option then ignore the dialog that say CRC fails and wait for the extraction to be done, the quality is not much different (actually nothing change I believe)

4) How to extract file with many parts
Just download and put them all in the same folder then extract one part, it will automatic find the rest for you.

Have fun watching movie, and if you find any problem, please let me know and I will try to help ! If you like my topic, please share it to your friends and say thanks to keep the topic alive, thanks ^_^
Back to top Go down
Back to top 
Page 1 of 1

Permissions in this forum:You cannot reply to topics in this forum
Pspipes :: Downloads :: Movies-
Jump to: