The Gamers Hive
 
HomeSearchFAQRegisterLog in

Share | 
 

 Hollywood Sex Wars 2011 DVDRiP XViD-OCW

Go down 
AuthorMessage
bubgamem4m
Soldier First Class
Soldier First Class
avatar

Posts : 728
Join date : 2011-10-07
Age : 30

PostSubject: Hollywood Sex Wars 2011 DVDRiP XViD-OCW   Fri Jan 06, 2012 7:42 am

( Share by 3v3rything4u )
[FS] Hollywood Sex Wars 2011 DVDRiP XViD-OCW


I WILL UPDATE DAILY - ALL MOVIES ARE DOWNLOADED, TESTED AND UPLOADED BY ME PERSONALLY !

If you find any dead link, please reply and I will reply back to you when its done, thanks and have a good time !


________________

Movie Information
    Type: Comedy
    Director: Paul Sapiano
    Writers: Paul Sapiano
    Stars: Mario Diaz, Jenae Altschwager and Dominque Purdy
    Story: Max (Dominique Purdy), Aaron (Richard Blair) and Glen (Nicholas Cooper) have a track record littered with strike-outs and misfit hook-ups...

    Video
    ID : 0
    Format : MPEG-4 Visual
    Format profile : Advanced Simple@L5
    Format settings, BVOP : 2
    Format settings, QPel : No
    Format settings, GMC : No warppoints
    Format settings, Matrix : Default (H.263)
    Codec ID : XVID
    Codec ID/Hint : XviD
    Duration : 1h 38mn
    Bit rate : 1 196 Kbps
    Width : 640 pixels
    Height : 352 pixels
    Display aspect ratio : 16:9
    Frame rate : 23.976 fps
    Color space : YUV
    Chroma subsampling : 4:2:0
    Bit depth : 8 bits
    Scan type : Progressive
    Compression mode : Lossy
    Bits/(Pixel*Frame) : 0.221
    Stream size : 846 MiB (82%)
    Writing library : XviD 63

    Audio
    ID : 1
    Format : MPEG Audio
    Format version : Version 1
    Format profile : Layer 3
    Mode : Joint stereo
    Mode extension : MS Stereo
    Codec ID : 55
    Codec ID/Hint : MP3
    Duration : 1h 38mn
    Bit rate mode : Constant
    Bit rate : 256 Kbps
    Channel(s) : 2 channels
    Sampling rate : 44.1 KHz
    Compression mode : Lossy
    Delay relative to video : 42ms
    Stream size : 181 MiB (17%)
    Alignment : Aligned on interleaves
    Interleave, duration : 26 ms (0.63 video frame)
    Interleave, preload duration : 809 ms
    Writing library : LAME3.98.4



Movie Trailer
Code:
http://www.youtube.com/watch?v=aaf2VUO-lJY


Movie Screens

________________

________________




________ LINK DOWNLOAD ____________________________
Code:

http://www.fileserve.com/file/Usz9aSE/HOasbWAcGA.part1.rar
http://www.fileserve.com/file/V8en42w/HOasbWAcGA.part2.rar
http://www.fileserve.com/file/2pqrewH/HOasbWAcGA.part3.rar


(<>)______________________________ FAQ _____________________________(<>)

1) I can't open the video
Some software doesn't have the code to watch, I suggest downloading K Lite Mega Code Pack, it can watch almost all the film.

2) One of the link is dead
Sometimes, if you use another software to download the link, it reports that it's broken but actually it is not, so just copy and paste it on your browser to test it. But if you still got trouble, no worry, just let me know by replying and I will reupload.

3) Extract fail, CRC error. This could be several reason:
a) While downloading serveral parts, due to internet connection you're not downloading fully one of the part therefore is broken, so check the download size for each part if the problem appears.
b) Sometimes even there's no problem in adding archive or uploading or downloading but it still reports the CRC Fails, just select the Keep Broken File option then ignore the dialog that say CRC fails and wait for the extraction to be done, the quality is not much different (actually nothing change I believe)

4) How to extract file with many parts
Just download and put them all in the same folder then extract one part, it will automatic find the rest for you.

Have fun watching movie, and if you find any problem, please let me know and I will try to help ! If you like my topic, please share it to your friends and say thanks to keep the topic alive, thanks ^_^
Back to top Go down
 
Hollywood Sex Wars 2011 DVDRiP XViD-OCW
Back to top 
Page 1 of 1

Permissions in this forum:You cannot reply to topics in this forum
Pspipes :: Downloads :: Movies-
Jump to: