The Gamers Hive
 
HomeSearchFAQRegisterLog in

Share | 
 

 Janie Jones 2011 DVDScr-PA

Go down 
AuthorMessage
bubgamem4m
Soldier First Class
Soldier First Class
avatar

Posts : 728
Join date : 2011-10-07
Age : 30

PostSubject: Janie Jones 2011 DVDScr-PA   Sat Jan 14, 2012 7:14 am

( Share by 3v3rything4u )
[FS] Janie.Jones.2011.DVDScr-PA


I WILL UPDATE DAILY - ALL MOVIES ARE DOWNLOADED, TESTED AND UPLOADED BY ME PERSONALLY !

If you find any dead link, please reply and I will reply back to you when its done, thanks and have a good time !


________________

Movie Information
    Type: Drama | Music
    Director: David M. Rosenthal
    Writers: David M. Rosenthal
    Stars: James McAvoy, Michael Fassbender and Jennifer Lawrence
    Story: Abigail Breslin, Alessandro Nivola and Elisabeth Shue

    Video
    ID : 0
    Format : MPEG-4 Visual
    Format profile : Simple@L3
    Format settings, BVOP : No
    Format settings, QPel : No
    Format settings, GMC : No warppoints
    Format settings, Matrix : Default (H.263)
    Codec ID : XVID
    Codec ID/Hint : XviD
    Duration : 1h 47mn
    Bit rate : 773 Kbps
    Width : 640 pixels
    Height : 264 pixels
    Display aspect ratio : 2.40:1
    Frame rate : 23.976 fps
    Color space : YUV
    Chroma subsampling : 4:2:0
    Bit depth : 8 bits
    Scan type : Progressive
    Compression mode : Lossy
    Bits/(Pixel*Frame) : 0.191
    Stream size : 592 MiB (85%)
    Writing library : XviD 1.2.1 (UTC 2008-12-04)

    Audio
    ID : 1
    Format : MPEG Audio
    Format version : Version 1
    Format profile : Layer 3
    Mode : Joint stereo
    Mode extension : MS Stereo
    Codec ID : 55
    Codec ID/Hint : MP3
    Duration : 1h 47mn
    Bit rate mode : Constant
    Bit rate : 128 Kbps
    Channel(s) : 2 channels
    Sampling rate : 48.0 KHz
    Compression mode : Lossy
    Stream size : 98.0 MiB (14%)
    Alignment : Aligned on interleaves
    Interleave, duration : 42 ms (1.00 video frame)
    Interleave, preload duration : 504 ms
    Writing library : LAME3.97
    Encoding settings : -m j -V 4 -q 2 -lowpass 17 -b 128



Movie Trailer
Code:
http://www.youtube.com/watch?v=LHS0JTwdHls&ob=av3e


Movie Screens

________________

________________

________________



________ LINK DOWNLOAD ____________________________
Code:

http://www.fileserve.com/file/vfW6WmZ/JAaJObGA.part1.rar
http://www.fileserve.com/file/wSmb99H/JAaJObGA.part2.rar


(<>)______________________________ FAQ _____________________________(<>)

1) I can't open the video
Some software doesn't have the code to watch, I suggest downloading K Lite Mega Code Pack, it can watch almost all the film.

2) One of the link is dead
Sometimes, if you use another software to download the link, it reports that it's broken but actually it is not, so just copy and paste it on your browser to test it. But if you still got trouble, no worry, just let me know by replying and I will reupload.

3) Extract fail, CRC error. This could be several reason:
a) While downloading serveral parts, due to internet connection you're not downloading fully one of the part therefore is broken, so check the download size for each part if the problem appears.
b) Sometimes even there's no problem in adding archive or uploading or downloading but it still reports the CRC Fails, just select the Keep Broken File option then ignore the dialog that say CRC fails and wait for the extraction to be done, the quality is not much different (actually nothing change I believe)

4) How to extract file with many parts
Just download and put them all in the same folder then extract one part, it will automatic find the rest for you.

Have fun watching movie, and if you find any problem, please let me know and I will try to help ! If you like my topic, please share it to your friends and say thanks to keep the topic alive, thanks ^_^
Back to top Go down
 
Janie Jones 2011 DVDScr-PA
Back to top 
Page 1 of 1
 Similar topics
-
» Hot Toys making Indiana Jones figures, hints at Star Wars as well...
» NECA Toy Fair 2011 reveal thread
» Laney's Loft - Work Required
» DaBigfella's Collection Update Saturday 20th June 2011 page 6
» SDCC 2011 Reveals

Permissions in this forum:You cannot reply to topics in this forum
Pspipes :: Downloads :: Movies-
Jump to: