The Gamers Hive
HomeSearchFAQRegisterLog in

Share | 

 Sand Sharks 2011 DVDRip XviD- SPRiNTER

Go down 
Soldier First Class
Soldier First Class

Posts : 728
Join date : 2011-10-07
Age : 29

PostSubject: Sand Sharks 2011 DVDRip XviD- SPRiNTER   Sun Jan 15, 2012 6:54 am

( Share by 3v3rything4u )
[FS] Sand.Sharks.2011.DVDRip.XviD- SPRiNTER


If you find any dead link, please reply and I will reply back to you when its done, thanks and have a good time !


Movie Information
    Type: Horror | Sci-Fi
    Director: Mark AtkinsCameron Larson (screenplay), Cameron Larson (story)Ashley Miller (screenplay), Zack Stentz (screenplay)
    Stars: Rob Aguire, Julie Berman and D.T. Carney
    Story: The search for the bottom of the creature feature barrel continues with “Sand Sharks”, a film which explores the long pondered philosophical question as to what would happen if sharks could in fact swim through sand.

    ID : 0
    Format : MPEG-4 Visual
    Format profile : Advanced SimpleL5
    Format settings, BVOP : 2
    Format settings, QPel : No
    Format settings, GMC : No warppoints
    Format settings, Matrix : Default (H.263
    Codec ID : XVID
    Codec ID/Hint : XviD
    Duration : 1h 27mn
    Bit rate : 981 Kbps
    Width : 576 pixels
    Height : 320 pixels
    Display aspect ratio : 16:9
    Frame rate : 25.000 fps
    Color space : YUV
    Chroma subsampling : 4:2:0
    Bit depth : 8 bits
    Scan type : Progressive
    Compression mode : Lossy
    Bits/(PixelFrame) : 0.213
    Stream size : 610 MiB (87
    Writing library : XviD 61

    ID : 1
    Format : MPEG Audio
    Format version : Version 1
    Format profile : Layer 3
    Mode : Joint stereo
    Mode extension : MS Stereo
    Codec ID : 55
    Codec ID/Hint : MP3
    Duration : 1h 27mn
    Bit rate mode : Variable
    Bit rate : 132 Kbps
    Minimum bit rate : 128 Kbps
    Channel(s) : 2 channels
    Sampling rate : 48.0 KHz
    Compression mode : Lossy
    Stream size : 82.3 MiB (12
    Alignment : Aligned on interleaves
    Interleave, duration : 24 ms (0.60 video frame
    Interleave, preload duration : 487 ms
    Writing library : LAME3.95
    Encoding settings : -m j -V 4 -q 3 -lowpass 18 --vbr-old -b 128

Movie Trailer

Movie Screens




________ LINK DOWNLOAD ____________________________

(<>)______________________________ FAQ _____________________________(<>)

1) I can't open the video
Some software doesn't have the code to watch, I suggest downloading K Lite Mega Code Pack, it can watch almost all the film.

2) One of the link is dead
Sometimes, if you use another software to download the link, it reports that it's broken but actually it is not, so just copy and paste it on your browser to test it. But if you still got trouble, no worry, just let me know by replying and I will reupload.

3) Extract fail, CRC error. This could be several reason:
a) While downloading serveral parts, due to internet connection you're not downloading fully one of the part therefore is broken, so check the download size for each part if the problem appears.
b) Sometimes even there's no problem in adding archive or uploading or downloading but it still reports the CRC Fails, just select the Keep Broken File option then ignore the dialog that say CRC fails and wait for the extraction to be done, the quality is not much different (actually nothing change I believe)

4) How to extract file with many parts
Just download and put them all in the same folder then extract one part, it will automatic find the rest for you.

Have fun watching movie, and if you find any problem, please let me know and I will try to help ! If you like my topic, please share it to your friends and say thanks to keep the topic alive, thanks ^_^
Back to top Go down
Sand Sharks 2011 DVDRip XviD- SPRiNTER
Back to top 
Page 1 of 1

Permissions in this forum:You cannot reply to topics in this forum
Pspipes :: Downloads :: Movies-
Jump to: