The Gamers Hive
 
HomeSearchFAQRegisterLog in

Share | 
 

 The Descendants 2011 REPACK SCREENER XviD - ZOMBiES

Go down 
AuthorMessage
bubgamem4m
Soldier First Class
Soldier First Class
avatar

Posts : 728
Join date : 2011-10-07
Age : 30

PostSubject: The Descendants 2011 REPACK SCREENER XviD - ZOMBiES   Wed Jan 18, 2012 6:37 am

( Share by 3v3rything4u )
[FS] The Descendants 2011 REPACK SCREENER XviD - ZOMBiES


I WILL UPDATE DAILY - ALL MOVIES ARE DOWNLOADED, TESTED AND UPLOADED BY ME PERSONALLY !

If you find any dead link, please reply and I will reply back to you when its done, thanks and have a good time !


________________

Movie Information
    Type: Comedy | Drama
    Director: Alexander Payne
    Writers: Alexander Payne (screenplay), Nat Faxon (screenplay)
    Stars: George Clooney, Shailene Woodley and Amara Miller
    Story: A land baron tries to re-connect with his two daughters after his wife suffers a boating accident.

    Video
    ID : 0
    Format : xvid
    Codec ID : xvid
    Duration : 1h 55mn
    Bit rate : 713 Kbps
    Width : 624 pixels
    Height : 336 pixels
    Display aspect ratio : 1.857
    Frame rate : 23.976 fps
    Bits/(Pixel*Frame) : 0.142
    Stream size : 589 MiB (78%)

    Audio
    ID : 1
    Format : MPEG Audio
    Format version : Version 1
    Format profile : Layer 3
    Mode : Joint stereo
    Mode extension : MS Stereo
    Codec ID : 55
    Codec ID/Hint : MP3
    Duration : 1h 55mn
    Bit rate mode : Constant
    Bit rate : 32.0 Kbps
    Channel(s) : 2 channels
    Sampling rate : 44.1 KHz
    Compression mode : Lossy
    Stream size : 153 MiB (20%)
    Alignment : Aligned on interleaves
    Interleave, duration : 26 ms (0.63 video frame)
    Interleave, preload duration : 89 ms
    Writing library : LAME3.98.4



Movie Trailer
Code:
http://www.youtube.com/watch?v=CWHNXJ1K4yA


Movie Screens

________________

________________

________________



________ LINK DOWNLOAD ____________________________
Code:

http://www.fileserve.com/file/4crcjdq/taDESCbGA.part1.rar
http://www.fileserve.com/file/urJTkdQ/taDESCbGA.part2.rar


(<>)______________________________ FAQ _____________________________(<>)

1) I can't open the video
Some software doesn't have the code to watch, I suggest downloading K Lite Mega Code Pack, it can watch almost all the film.

2) One of the link is dead
Sometimes, if you use another software to download the link, it reports that it's broken but actually it is not, so just copy and paste it on your browser to test it. But if you still got trouble, no worry, just let me know by replying and I will reupload.

3) Extract fail, CRC error. This could be several reason:
a) While downloading serveral parts, due to internet connection you're not downloading fully one of the part therefore is broken, so check the download size for each part if the problem appears.
b) Sometimes even there's no problem in adding archive or uploading or downloading but it still reports the CRC Fails, just select the Keep Broken File option then ignore the dialog that say CRC fails and wait for the extraction to be done, the quality is not much different (actually nothing change I believe)

4) How to extract file with many parts
Just download and put them all in the same folder then extract one part, it will automatic find the rest for you.

Have fun watching movie, and if you find any problem, please let me know and I will try to help ! If you like my topic, please share it to your friends and say thanks to keep the topic alive, thanks ^_^
Back to top Go down
 
The Descendants 2011 REPACK SCREENER XviD - ZOMBiES
Back to top 
Page 1 of 1
 Similar topics
-
» NECA Toy Fair 2011 reveal thread
» DaBigfella's Collection Update Saturday 20th June 2011 page 6
» SDCC 2011 Reveals
» 2011 SDCC MotuC items revealed!
» Does anyone know what the 2011 top hat of..

Permissions in this forum:You cannot reply to topics in this forum
Pspipes :: Downloads :: Movies-
Jump to: