The Gamers Hive
 
HomeSearchFAQRegisterLog in

Share | 
 

 Donner Pass 2012 DVDRiP XviD AC3- SiC

Go down 
AuthorMessage
bubgamem4m
Soldier First Class
Soldier First Class
avatar

Posts : 728
Join date : 2011-10-07
Age : 29

PostSubject: Donner Pass 2012 DVDRiP XviD AC3- SiC   Fri Jan 20, 2012 6:39 am

( Share by 3v3rything4u )
[FS] Donner.Pass.2012.DVDRiP.XviD.AC3- SiC


I WILL UPDATE DAILY - ALL MOVIES ARE DOWNLOADED, TESTED AND UPLOADED BY ME PERSONALLY !

If you find any dead link, please reply and I will reply back to you when its done, thanks and have a good time !


________________

Movie Information
    Type: Horror
    Director: Elise Robertson
    Writers: R. Scott Adams
    Stars: Desiree Hall, Erik Stocklin and Colley Bailey
    Story: Donner Pass has a well-known and macabre history - the place where George Donner and his party got stuck in the winter of 1846 and were forced to resort to cannibalism to keep from starving. But what if it wasn't just history?

    Video
    ID : 0
    Format : MPEG-4 Visual
    Format profile : Advanced Simple@L5
    Format settings, BVOP : 2
    Format settings, QPel : No
    Format settings, GMC : No warppoints
    Format settings, Matrix : Default (H.263)
    Muxing mode : Packed bitstream
    Codec ID : XVID
    Codec ID/Hint : XviD
    Duration : 1h 25mn
    Bit rate : 1 818 Kbps
    Width : 720 pixels
    Height : 400 pixels
    Display aspect ratio : 16:9
    Frame rate : 23.976 fps
    Color space : YUV
    Chroma subsampling : 4:2:0
    Bit depth : 8 bits
    Scan type : Progressive
    Compression mode : Lossy
    Bits/(Pixel*Frame) : 0.263
    Stream size : 1.09 GiB (80%)
    Writing library : XviD 1.1.2 (UTC 2006-11-01)

    Audio
    ID : 1
    Format : AC-3
    Format/Info : Audio Coding 3
    Mode extension : CM (complete main)
    Codec ID : 2000
    Duration : 1h 25mn
    Bit rate mode : Constant
    Bit rate : 448 Kbps
    Channel(s) : 6 channels
    Channel positions : Front: L C R, Side: L R, LFE
    Sampling rate : 48.0 KHz
    Bit depth : 16 bits
    Compression mode : Lossy
    Stream size : 276 MiB (20%)
    Alignment : Aligned on interleaves
    Interleave, duration : 64 ms (1.53 video frames)
    Interleave, preload duration : 192 ms
    Title : VTS_02_1 3_2ch 448Kbps DELAY -16ms



Movie Trailer
Code:
http://www.youtube.com/watch?v=-0YCR2j9csU


Movie Screens

________________

________________



________ LINK DOWNLOAD ____________________________
Code:

http://www.fileserve.com/file/6cXpsu7/DONNapbGA.part1.rar
http://www.fileserve.com/file/udHDT4X/DONNapbGA.part2.rar
http://www.fileserve.com/file/swZU2gY/DONNapbGA.part3.rar
http://www.fileserve.com/file/sdzfMSj/DONNapbGA.part4.rar


(<>)______________________________ FAQ _____________________________(<>)

1) I can't open the video
Some software doesn't have the code to watch, I suggest downloading K Lite Mega Code Pack, it can watch almost all the film.

2) One of the link is dead
Sometimes, if you use another software to download the link, it reports that it's broken but actually it is not, so just copy and paste it on your browser to test it. But if you still got trouble, no worry, just let me know by replying and I will reupload.

3) Extract fail, CRC error. This could be several reason:
a) While downloading serveral parts, due to internet connection you're not downloading fully one of the part therefore is broken, so check the download size for each part if the problem appears.
b) Sometimes even there's no problem in adding archive or uploading or downloading but it still reports the CRC Fails, just select the Keep Broken File option then ignore the dialog that say CRC fails and wait for the extraction to be done, the quality is not much different (actually nothing change I believe)

4) How to extract file with many parts
Just download and put them all in the same folder then extract one part, it will automatic find the rest for you.

Have fun watching movie, and if you find any problem, please let me know and I will try to help ! If you like my topic, please share it to your friends and say thanks to keep the topic alive, thanks ^_^
Back to top Go down
 
Donner Pass 2012 DVDRiP XviD AC3- SiC
Back to top 
Page 1 of 1

Permissions in this forum:You cannot reply to topics in this forum
Pspipes :: Downloads :: Movies-
Jump to: